Ambarsariya (2016) (Punjabi) 1CD DVDScr x264 Free Download

An insurance agent sets out on an action-packed mission to restore his community’s faith.

Ratings: 7.2/10

Genere: Comedy, Family, Music

General
Unique ID : 254048094637501143463619347883164300486 (0xBF1FE21E7C91BDB7AB69426E3EA1F4C6)
Complete name : Ambarsariya (2016) – 1CD – DVDSCR-Rip – Punjabi – x264 – MP3 – M2Tv.mkv
Format : Matroska
Format version : Version 4 / Version 2
File size : 706 MiB
Duration : 2h 14mn
Overall bit rate : 732 Kbps
Encoded date : UTC 2016-04-02 16:03:17
Writing application : mkvmerge v7.9.0 (‘Birds’) 64bit
Writing library : libebml v1.3.1 + libmatroska v1.4.2

Video
ID : 1
Format : AVC
Format/Info : Advanced Video Codec
Format profile : High@L2.1
Format settings, CABAC : Yes
Format settings, ReFrames : 4 frames
Codec ID : V_MPEG4/ISO/AVC
Duration : 2h 14mn
Bit rate : 650 Kbps
Width : 640 pixels
Height : 272 pixels
Display aspect ratio : 2.35:1
Frame rate mode : Constant
Frame rate : 23.976 fps
Color space : YUV
Chroma subsampling : 4:2:0
Bit depth : 8 bits
Scan type : Progressive
Bits/(Pixel*Frame) : 0.156
Stream size : 615 MiB (87%)
Title : Mafiaking
Language : Panjabi
Default : Yes
Forced : No

Audio
ID : 2
Format : MPEG Audio
Format version : Version 1
Format profile : Layer 3
Mode : Joint stereo
Mode extension : MS Stereo
Codec ID : A_MPEG/L3
Codec ID/Hint : MP3
Duration : 2h 14mn
Bit rate mode : Constant
Bit rate : 80.0 Kbps
Channel(s) : 2 channels
Sampling rate : 32.0 KHz
Compression mode : Lossy
Stream size : 77.2 MiB (11%)
Title : Mafiaking
Writing library : LAME3.99r
Language : Panjabi
Default : Yes
Forced : No

https://openload.co/f/Bim05q2A2gY/

Share on Facebook0Share on Google+0Tweet about this on TwitterShare on LinkedIn0

You may also like...